2x1 season x episode The Grand Tour
3x8 season x episode Blindspot

Just Getting Started 2017 720p BluRay x264 ESub

  • Category Movies
  • Type HD
  • Language English
  • Total size 834.3 MB
  • Uploaded By moviezworldz
  • Downloads 23
  • Last checked 4 days ago
  • Date uploaded 5 days ago
  • Seeders 11
  • Leechers 7

Just Getting Started

ActionComedy

A retired FBI agent and an ex-mob lawyer in the witness protection program having to put aside their petty rivalry on the golf course to fend off a mob hit.

Infohash : 8B28570AC58ACAC5AABA9037021EC155D17ED2CA




General
Format : Matroska
Format version : Version 4 / Version 2
File size : 834 MiB
Duration : 1 h 30 min
Overall bit rate : 1 283 kb/s

Video
ID : 1
Format : AVC
Format/Info : Advanced Video Codec
Format profile : [email protected]
Format settings : CABAC / 4 Ref Frames
Format settings, CABAC : Yes
Format settings, ReFrames : 4 frames
Codec ID : V_MPEG4/ISO/AVC
Duration : 1 h 30 min
Bit rate : 1 200 kb/s
Width : 1 280 pixels
Height : 532 pixels
Display aspect ratio : 2.40:1
Frame rate mode : Constant
Frame rate : 23.976 (24000/1001) FPS
Color space : YUV
Chroma subsampling : 4:2:0
Bit depth : 8 bits
Scan type : Progressive
Bits/(Pixel*Frame) : 0.073
Stream size : 764 MiB (92%)
Writing library : x264 core 148 r2708 86b7198
Default : Yes
Forced : No

Audio
ID : 3
Format : AAC
Format/Info : Advanced Audio Codec
Format profile : LC
Codec ID : A_AAC-2
Duration : 1 h 30 min
Bit rate : 96.0 kb/s
Channel(s) : 2 channels
Channel positions : Front: L R
Sampling rate : 44.1 kHz
Frame rate : 43.066 FPS (1024 SPF)
Compression mode : Lossy
Stream size : 62.4 MiB (7%)
Language : English
Default : Yes
Forced : No

Text
ID : 2
Format : VobSub
Muxing mode : zlib
Codec ID : S_VOBSUB
Codec ID/Info : Picture based subtitle format used on DVDs
Duration : 1 h 30 min
Bit rate : 9 614 b/s
Count of elements : 1701
Stream size : 6.23 MiB (1%)
Language : English
Default : Yes
Forced : No

Menu
00:00:00.000 : en:00:00:00.000
00:06:37.647 : en:00:06:37.647
00:11:13.506 : en:00:11:13.506
00:15:24.132 : en:00:15:24.132
00:22:28.722 : en:00:22:28.722
00:28:59.196 : en:00:28:59.196
00:34:12.467 : en:00:34:12.467
00:40:40.647 : en:00:40:40.647
00:49:58.495 : en:00:49:58.495
00:54:15.377 : en:00:54:15.377
01:00:56.278 : en:01:00:56.278
01:05:43.022 : en:01:05:43.022
01:12:51.367 : en:01:12:51.367
01:18:13.898 : en:01:18:13.898
01:22:24.273 : en:01:22:24.273
01:25:26.788 : en:01:25:26.788













Files:

Just Getting Started 2017 720p BluRay x264 ESub
  • Just Getting Started 2017 720p BluRay x264 ESub.mkv (834.3 MB)

There are currently no comments. Feel free to leave one :)

Code:

  • udp://tracker.coppersurfer.tk:6969/announce
  • udp://tracker.leechers-paradise.org:6969/announce
  • udp://inferno.demonoid.pw:3391/announce
  • udp://tracker.tntvillage.scambioetico.org:2710/announce
  • udp://tracker.pirateparty.gr:6969/announce
  • udp://9.rarbg.com:2770/announce
  • udp://public.popcorn-tracker.org:6969/announce
  • udp://tracker.zer0day.to:1337/announce
  • http://bigfoot1942.sektori.org:6969/announce
  • udp://ipv4.tracker.harry.lu:80/announce
  • udp://shadowshq.yi.org:6969/announce
  • udp://tracker.vanitycore.co:6969/announce
  • udp://tracker.opentrackr.org:1337/announce
  • udp://explodie.org:6969/announce
  • udp://tracker.zer0day.to:1337/announce
  • udp://tracker.leechers-paradise.org:6969/announce
  • udp://coppersurfer.tk:6969/announce