Strona główna
Dzieci Solidarności (2006)

18+ Permission 2017 HDRip x264 5.1 English [HevcLovers]

  • Category Movies
  • Type HD
  • Language English
  • Total size 704.8 MB
  • Uploaded By Hevclovers
  • Downloads 396
  • Last checked 5 days ago
  • Date uploaded 5 days ago
  • Seeders 5
  • Leechers 5

Infohash : 0770E6F68D7D9DC02C6707732288A721586F52CC

Quote:

18+ Permission 2017 HDRip x264 5.1 English [HevcLovers]




Seed Will Be Slow Visit Our Site For Instant Download
Visit & Support www.MoviezAddiction.website







Quote:


 18+ Permission 2017 HDRip x264 5.1 English [HevcLovers]



Check Sample Before any Fool Comment Sample Included in torrent
Take It Or Leave It
Like Our Work Just leave Only 1 Valuable Comment
Keep Visit and Support http://moviezaddiction.website


General
Unique ID : 194260703683956038682564183613404811836 (0x92254028E974F4B834BEA86EC93F123C)
Complete name : N:\Torrents\18+ Permission 2017 HDRip x264 5.1 English [HEVCLOVERS]\18+ Permission 2017 HDRip x264 5.1 English.mkv
Format : Matroska
Format version : Version 4 / Version 2
File size : 698 MiB
Duration : 1 h 38 min
Overall bit rate : 995 kb/s
Movie name : www.MoviezAddiction.website
Encoded date : UTC 2018-02-14 17:45:48
Writing application : mkvmerge v19.0.0 ('Brave Captain') 32-bit
Writing library : libebml v1.3.5 + libmatroska v1.4.8

Video
ID : 2
Format : AVC
Format/Info : Advanced Video Codec
Format profile : [email protected]
Format settings, CABAC : Yes
Format settings, ReFrames : 2 frames
Format settings, GOP : M=1, N=12
Codec ID : V_MPEG4/ISO/AVC
Duration : 1 h 38 min
Bit rate mode : Constant
Bit rate : 612 kb/s
Width : 720 pixels
Height : 400 pixels
Display aspect ratio : 16:9
Frame rate mode : Constant
Frame rate : 23.976 FPS
Color space : YUV
Chroma subsampling : 4:2:0
Bit depth : 8 bits
Scan type : Progressive
Bits/(Pixel*Frame) : 0.089
Stream size : 427 MiB (61%)
Title : www.MoviezAddiction.website
Default : Yes
Forced : No

Audio
ID : 1
Format : AC-3
Format/Info : Audio Coding 3
Mode extension : CM (complete main)
Format settings, Endianness : Big
Codec ID : A_AC3
Duration : 1 h 38 min
Bit rate mode : Constant
Bit rate : 384 kb/s
Channel(s) : 6 channels
Channel positions : Front: L C R, Side: L R, LFE
Sampling rate : 48.0 kHz
Frame rate : 31.250 FPS (1536 spf)
Bit depth : 16 bits
Compression mode : Lossy
Stream size : 270 MiB (39%)
Title : www.MoviezAddiction.website
Default : Yes
Forced : No

Text
ID : 3
Format : UTF-8
Codec ID : S_TEXT/UTF8
Codec ID/Info : UTF-8 Plain Text
Duration : 1 min 10 s
Bit rate : 37 b/s
Count of elements : 4
Stream size : 326 Bytes (0%)
Title : www.MoviezAddiction.website
Default : Yes
Forced : No
















Files:

18+ Permission 2017 HDRip x264 5.1 English [HEVCLOVERS] ScreenShots
  • vlcsnap-2018-02-14-09h47m08s979.png (407.2 KB)
  • vlcsnap-2018-02-14-09h47m58s971.png (344.3 KB)
  • vlcsnap-2018-02-14-09h48m39s371.png (265.7 KB)
  • vlcsnap-2018-02-14-09h48m13s879.png (265.0 KB)
  • vlcsnap-2018-02-14-09h47m34s163.png (258.8 KB)
  • vlcsnap-2018-02-14-09h47m22s297.png (252.9 KB)
  • vlcsnap-2018-02-14-09h46m53s756.png (246.8 KB)
  • 18+ Permission 2017 HDRip x264 5.1 English.mkv (698.5 MB)
  • Sample_preview.mkv (4.3 MB)

There are currently no comments. Feel free to leave one :)

Code:

  • udp://tracker.coppersurfer.tk:6969/announce
  • udp://tracker.ilibr.org:80/announce
  • udp://tracker.ilibr.org:6969/announce
  • udp://tracker.coppersurfer.tk:6969
  • udp://tracker.opentrackr.org:1337/announce
  • udp://tracker.zer0day.to:1337/announce
  • udp://p4p.arenabg.com:1337/announce
  • udp://p4p.arenabg.ch:1337/announce
  • udp://ipv4.tracker.harry.lu:80/announce
  • udp://explodie.org:6969/announce
  • udp://9.rarbg.to:2710/announce
  • udp://9.rarbg.com:2710/announce