Padmaavat 2018 Hindi Pre-DVDRip x264 AAC { TaRa }

  • Category Movies
  • Type Bollywood
  • Language Hindi
  • Total size 775.8 MB
  • Uploaded By SkTara
  • Downloads 23338
  • Last checked 3 weeks ago
  • Date uploaded 3 weeks ago
  • Seeders 390
  • Leechers 139

Padmaavat

Drama

Rani Padmavati - the wife of Maharawal Ratan Singh, is known for her beauty and valour in 13th century India. She captures the fancy of the reigning Sultan of Delhi, the tyrant Alauddin Khilji, who becomes obsessed with her and goes to great lengths to fulfill his greed.

Infohash : BA7C388658373218F3367B794C5DE760DDE72847


Padmaavat 2018 Hindi Pre-DVDRip x264 AAC { TaRa }.mkv


===================================================================
General
Complete name : Padmaavat 2018 Hindi Pre-DVDRip x264 AAC { TaRa }.mkv
Format : Matroska
Format version : Version 4 / Version 2
File size : 776 MiB
Duration : 2 h 23 min
Overall bit rate : 756 kb/s
===================================================================
Video
ID : 1
Format : AVC
Format/Info : Advanced Video Codec
Format profile : [email protected]
Format settings, CABAC : Yes
Format settings, ReFrames : 4 frames
Codec ID : V_MPEG4/ISO/AVC
Duration : 2 h 23 min
Bit rate : 596 kb/s
Width : 608 pixels
Height : 256 pixels
Display aspect ratio : 2.40:1
Frame rate mode : Constant
Frame rate : 25.000 FPS
Color space : YUV
Chroma subsampling : 4:2:0
Bit depth : 8 bits
Scan type : Progressive
Bits/(Pixel*Frame) : 0.153
Stream size : 612 MiB (79%)
Title : .....::::: TaRa ::::::.....
Language : Hindi
Default : Yes
Forced : No
===================================================================
Audio
ID : 2
Format : AAC
Format/Info : Advanced Audio Codec
Format profile : LC
Codec ID : A_AAC
Duration : 2 h 23 min
Bit rate : 158 kb/s
Channel(s) : 2 channels
Channel positions : Front: L R
Sampling rate : 44.1 kHz
Frame rate : 43.066 FPS (1024 spf)
Compression mode : Lossy
Stream size : 162 MiB (21%)
Title : .....::::: TaRa ::::::.....
Language : Hindi
Default : Yes
Forced : No
===================================================================




























Files:

Padmaavat 2018 Hindi Pre-DVDRip x264 AAC { TaRa }
  • www.hdsector.to.txt (0.8 KB)
  • www.hdsector.to.nfo (6.5 KB)
  • 639383-padmavati-posters.jpg (82.4 KB)
  • 101314.jpg (206.9 KB)
  • Padmaavat 2018 Hindi Pre-DVDRip x264 AAC { TaRa }.mkv (775.5 MB)

Comments

Code:

  • udp://tracker.coppersurfer.tk:6969/announce
  • udp://tracker.pirateparty.gr:6969/announce
  • udp://shadowshq.yi.org:6969/announce
  • udp://eddie4.nl:6969/announce
  • udp://tracker.leechers-paradise.org:6969/announce
  • udp://tracker.opentrackr.org:1337/announce
  • udp://p4p.arenabg.ch:1337/announce
  • udp://p4p.arenabg.com:1337/announce
  • udp://9.rarbg.me:2710/announce
  • udp://9.rarbg.to:2770/announce
  • udp://tracker.coppersurfer.tk:80/announce
  • udp://tracker.vanitycore.co:6969/announce
  • udp://public.popcorn-tracker.org:6969/announce
  • udp://tracker.opentrackr.org:1337/announce
  • udp://tracker.zer0day.to:1337/announce